Most viewed

Per quanto riguarda il gioco dal vivo invece non è ancora possibile utilizzare le slot machine gratis da bar anche se sono molte le voci che parlano di questa tipologia di intrattenimento e che sperano nel 2014 come anno di una ulteriore rivoluzione.Slot..
Read more
Ecco dove entrano in gioco bar slot machine 88 le slot machine gratis.Un buon giocatore è in grado di capire quando sia il momento di lasciare e quando invece sia il momento di puntare forte e continuare a sfruttare un trend positivo.I bonus..
Read more
Si tratta dei Tornei stellari: non una sola, ma ben quattro possibilità di vincere parte del montepremi settimanale, che è di ben 10 mila euro complessive.StarCasinò è conosciuto da tutti i suoi utenti iscritti, e da tutti gli appassionati di gambling on line..
Read more

Download ost young black jack


download ost young black jack

Note: From this website you will have access to mp3 downloads.
Wav Peak level 100.0 noleggio slot machine sisal Extraction speed.4 X Track quality 100.0 Test CRC Copy CRC Track not present in AccurateRip database Copy OK Track 13 Filename C:13 Afghanistan 2025.wav Peak level.9 Extraction speed.7 X Track quality.9 Test CRC D1F11BDF Copy CRC D1F11BDF.
Wav Peak level.6 Extraction speed.6 X Track quality 100.0 Test CRC D150A675 Copy CRC D150A675 Track not present in AccurateRip database Copy OK Track 18 Filename C:18 Anthem.
Selected bitrate : 1024 kBit/s, quality : High, add ID3 tag :.Used output format : User Defined Encoder.Read mode : Secure, utilize accurate stream : Yes, defeat audio cache : Yes.Delete leading and trailing silent blocks :.Wav Peak level.5 Extraction speed.8 X Track quality.8 Test CRC D34F07BC Copy CRC D34F07BC Track not present in AccurateRip database Copy OK Track 25 Filename C:25 DeFalco's Theme.Used drive : Optiarc DVD RW AD-7243S Adapter: 2 ID:.EAC extraction logfile from.Wav Peak level.9 Extraction speed.5 X Track quality 100.0 Test CRC B12B9BE1 Copy CRC B12B9BE1 Track not present in AccurateRip database Copy OK Track 15 Filename C:15 Nino Precioso (Feat.Wav Peak level.9 Extraction speed.1 X Track quality 100.0 Test CRC E5A99FFA Copy CRC E5A99FFA Track not present in AccurateRip database Copy OK Track 7 Filename C:07 Flying Squirrels.Used interface : Native Win32 interface for Win NT 2000.Though the wind won't help you fly at all.



Azam Ali).wav Peak level.1 Extraction speed.1 X Track quality.9 Test CRC 8EB2A130 Copy CRC 8EB2A130 Track not present in AccurateRip database Copy OK Track 22 Filename C:22 Shadows (Outer Club Solar).wav Peak level.3 Extraction speed.3 X Track quality 100.0 Test.
Wav Peak level.0 Extraction speed.2 X Track quality 100.0 Test CRC 003dcfac Copy CRC 003dcfac Track not present in AccurateRip database Copy OK Track 24 Filename C:24 Colossus.
Wav Peak level 100.0 Extraction speed.3 X Track quality.9 Test CRC 729E10EC Copy CRC 729E10EC Track not present in AccurateRip database Copy OK Track 10 Filename C:10 Desert Ride.Wav Peak level 100.0 Extraction speed.5 X Track quality.9 Test CRC 737DD13E Copy CRC 737DD13E Track not present in AccurateRip database Copy OK Track 6 Filename C:06 Catch Me If You Can.15.21 2:34., track.Rules: MP3s will be for personal use only / You may not redistribute them / Delete them from hard disk after 24 hours (If you don't agree, close this window), dMCA Info.468 sec.Wav Peak level 100.0 Extraction speed.0 X Track quality 100.0 Test CRC Copy CRC Track not present in AccurateRip database Copy OK Track 19 Filename C:19 Anthem (Tuey Remix).wav Peak level.4 Extraction speed.0 X Track quality 100.0 Test CRC 3B6E4CCE Copy CRC.There's danger and a promise to be told.As you run, you run, you run!Read offset correction : 48, overread into Lead-In and Lead-Out :.




Sitemap